#TITLE:New World Symphony;
#SUBTITLE:SDO Taiwan lv31 - [N]hok[Q] Simfile;
#ARTIST:Dvorak;
#TITLETRANSLIT:;
#SUBTITLETRANSLIT:;
#ARTISTTRANSLIT:;
#CREDIT:[N]hok[Q];
#BANNER:bn.png;
#BACKGROUND:bg.png;
#LYRICSPATH:;
#CDTITLE:cd.png;
#MUSIC:New World Symphony.mp3;
#OFFSET:0.000;
#SAMPLESTART:43.598;
#SAMPLELENGTH:12.000;
#SELECTABLE:YES;
#BPMS:0.000=389.633,1.000=389.576,2.000=74.435,3.000=136.999,4.000=136.992,5.000=136.999,6.000=136.992,8.000=136.999,9.000=136.992,11.000=136.999,12.000=136.992,15.000=136.985,16.000=136.999,17.000=136.992,22.000=136.999,23.000=136.985,24.000=136.999,25.000=136.992,27.000=136.985,28.000=136.999,29.000=136.992,30.000=136.985,31.000=136.999,32.000=136.992,43.000=136.999,44.000=136.992,45.000=136.985,46.000=136.999,47.000=136.992,54.000=136.985,55.000=136.999,56.000=136.992,59.000=136.985,60.000=136.999,61.000=136.992,84.000=136.999,85.000=136.992,88.000=136.985,89.000=136.999,90.000=136.992,115.000=136.985,116.000=136.992,117.000=136.999,118.000=136.992,165.000=136.999,166.000=136.992,172.000=136.985,173.000=136.992,174.000=136.999,175.000=136.992,226.000=136.985,227.000=136.992,231.000=136.999,232.000=136.992,288.000=136.999,289.000=136.992,383.000=136.999,384.000=136.992,397.000=136.985,398.000=136.992,402.000=136.999,403.000=136.992;
#STOPS:;
#BGCHANGES:;
// cache tags:
#FIRSTBEAT:2.000;
#LASTBEAT:433.000;
#SONGFILENAME:Songs/SDO pack 4/New World Symphony/New World Symphony.sm;
#HASMUSIC:1;
#HASBANNER:1;
#MUSICLENGTH:190.699;
// end cache tags

//---------------dance-single - ----------------
#NOTES:
     dance-single:
     :
     Hard:
     31:
     1.000,1.000,1.000,1.000,1.000,1356.000,450.000,402.000,0.000,440.000:
0000
0000
0000
0000
0000
0000
0000
0000
0000
0000
0000
0000
0000
0000
0000
0000
0200
0000
0000
0000
0000
0000
0000
0000
1321
0000
0100
0030
0012
0000
0100
0003
,
1021
0000
0100
0030
0012
0000
0100
0003
1210
0000
0001
0300
0012
0000
0100
0003
1210
0000
0001
0300
0012
0000
0100
0003
1210
0000
0001
0300
0012
0000
0100
0003
,
1210
0000
0001
0300
1020
0000
0100
0030
1201
0000
0010
0300
0102
0000
0010
0003
1201
0000
0010
0300
0102
0000
0010
0003
1021
0000
0100
0000
1000
0000
0100
0000
,
1031
0010
0100
0010
1021
0100
1000
0100
1031
0010
0100
0010
1102
0010
0100
1000
,
0113
0001
0010
0100
1102
0010
0100
1000
0113
0001
0010
0100
1010
0100
0010
0001
,
2111
0000
0001
0000
0010
0000
0100
3000
1112
0000
0100
0000
0010
0000
0100
0003
2111
0000
0010
0000
0100
0000
0010
3000
1112
0000
0010
0000
0100
0000
1000
0000
,
0110
0010
0100
1000
0110
0010
0100
1000
0110
0010
0100
1000
2223
0000
0000
0000
,
3331
0000
1022
0033
1022
0033
2212
0000
,
3313
0000
0000
0000
2200
0000
0000
3300
2210
0000
0000
0000
0000
0000
0000
0000
3310
0000
0000
0000
0000
0000
0000
0000
1222
0000
0000
0000
0000
0000
0000
0000
,
1333
0000
0000
0000
0000
0000
0000
0000
1022
0000
0000
0000
0033
0000
0000
0000
1022
0000
0000
0033
2200
0000
0000
3300
1222
0000
0000
0000
0000
0000
0000
0000
,
1333
0000
1000
0000
1220
0330
2221
0000
,
3331
0000
1022
0033
1022
0033
2212
0000
,
3313
0000
0000
0000
2200
0000
0000
3300
2210
0000
0000
0000
0000
0000
0000
0000
3310
0000
0000
0000
0000
0000
0000
0000
1222
0000
0000
0000
0000
0000
0000
0000
,
1333
0000
0000
0000
0000
0000
0000
0000
0100
0000
0000
0000
0000
0000
0000
0000
0010
0000
0000
0000
0000
0000
0000
0000
1022
0000
0000
0000
0000
0000
0000
0000
0000
0000
0000
0000
0033
0000
0000
0000
0000
0000
0000
0000
0000
0000
0000
0000
1022
0000
0000
0000
0000
0000
0000
0000
0000
0033
0000
0000
2210
0000
0000
0000
0000
0000
0000
0000
0000
3300
0000
0000
2122
0000
0000
0000
0000
0000
0000
0000
0000
3000
0000
0000
0200
0000
0000
0000
0000
0000
0000
0000
0000
0300
0000
0000
,
2100
0000
0000
3033
0200
0000
0000
0300
0120
0000
0000
0030
0002
0000
0000
0003
2100
0000
0000
3000
0020
0000
0000
0030
2221
0000
0000
0000
0000
0000
0000
0000
,
3331
0000
1022
0033
1022
0033
2212
0000
,
3313
0000
0000
0000
2200
0000
0000
3300
2210
0000
0000
0000
0000
0000
0000
0000
3310
0000
0000
0000
0000
0000
0000
0000
1222
0000
0000
0000
0000
0000
0000
0000
,
1333
0000
0000
0000
0000
0000
0000
0000
1022
0000
0000
0000
0033
0000
0000
0000
1022
0000
0000
0033
2200
0000
0000
3300
1222
0000
0000
0000
0000
0000
0000
0000
,
1333
0000
1002
0003
1220
0330
2221
0000
,
3331
0000
1022
0033
1022
0033
2212
0000
,
3313
0000
0000
0000
2200
0000
0000
3300
2210
0000
0000
0000
0000
0000
0000
0000
3310
0000
0000
0000
0000
0000
0000
0000
1222
0000
0000
0000
0000
0000
0000
0000
,
1333
0000
0000
0000
0000
0000
0000
0000
0100
0000
0000
0000
0000
0000
0000
0000
0010
0000
0000
0000
0000
0000
0000
0000
1022
0000
0000
0000
0000
0000
0000
0000
0000
0000
0000
0000
0033
0000
0000
0000
0000
0000
0000
0000
0000
0000
0000
0000
1022
0000
0000
0000
0000
0000
0000
0000
0000
0033
0000
0000
2210
0000
0000
0000
0000
0000
0000
0000
0000
3300
0000
0000
2122
0000
0000
0000
0000
0000
0000
0000
0000
3000
0000
0000
0200
0000
0000
0000
0000
0000
0000
0000
0000
0300
0000
0000
,
2100
0000
0000
3000
0200
0000
0033
0300
0120
0000
0000
0030
0002
0000
0000
0003
2100
0000
0000
3000
0020
0000
0000
0030
1102
0000
0010
0000
0100
0000
0010
0000
,
1100
0010
0103
0001
1102
0010
1003
0010
1102
0010
0103
1000
0211
1000
0010
1000
,
0011
0000
1300
0000
0210
0000
1000
0300
0211
0000
0010
0000
0001
0000
1000
0000
0011
0300
0100
0000
0010
0000
0001
0000
1210
0000
0001
0300
0010
0000
1000
0000
,
0211
0001
0310
0100
1021
0100
0031
0100
1012
0103
0210
0301
1012
0100
0010
0100
,
1010
0100
0010
0100
1010
0100
0013
0100
2011
0100
3001
0010
1102
0010
0100
0010
,
1100
0010
0103
0001
1102
0010
1003
0010
1102
0010
0103
1000
0211
1000
0010
1000
,
0011
0000
1300
0000
0210
0000
1000
0300
0211
0000
0010
0000
0001
0000
1000
0000
0011
0300
0100
0000
0010
0000
0001
0000
1210
0000
0001
0000
0310
0000
1000
0000
,
0211
0001
0310
0100
1021
0100
0031
0100
1012
0103
0210
0301
1012
0100
0010
0100
,
1010
0000
0100
0000
0010
0000
0100
0000
1010
0000
1103
0000
0110
0000
0011
0000
2110
0000
0011
0000
0110
0000
0011
3000
0111
0000
1000
0000
0100
0000
1000
0000
,
0011
1000
0100
0010
1110
0001
0010
0100
1110
0001
0010
0100
0111
1000
0100
0010
,
1001
0010
0111
1000
0111
1000
0010
0001
0011
0100
1000
0100
1101
0010
0100
0010
,
0101
0010
0100
0001
1011
0100
0010
0001
1110
0001
1110
0010
1101
0010
0100
0010
,
0101
0010
1100
0010
1011
0100
1000
0100
1010
0001
0010
0100
1111
0010
0100
1000
,
0011
1000
0100
0010
1110
0001
0010
0100
1110
0001
0010
0100
0111
1000
0100
0010
,
1001
0010
0111
1000
0111
0100
0010
0001
0011
0100
1000
0100
1101
0010
0100
0010
,
0101
0010
1100
0001
1011
0100
0010
0001
1100
0010
1100
0010
0111
1000
0100
0010
,
0011
1000
0100
1000
0111
1000
0100
1000
0111
1000
0100
1000
1110
0001
0010
0100
,
0010
0001
1110
0001
1110
0001
0010
0100
1010
0001
0010
0100
1111
0010
0100
0010
,
0110
0100
1000
0100
0111
0100
0010
0001
1110
1000
0111
1000
0111
0001
0010
0100
,
1010
0100
0010
0001
1010
0100
0010
0001
0101
0010
0100
1000
1111
0010
0100
0010
,
0110
0100
1000
0100
0111
0100
0010
0001
1110
1000
0111
1000
0111
0001
0010
0100
,
1010
0100
0010
0001
1010
0100
0010
0001
0101
0010
0100
1000
0111
0001
0010
0100
,
1010
0100
1000
0100
0111
0001
0010
0100
1010
0100
1000
0100
0111
0001
0010
0100
,
1010
0100
1000
0100
0111
0001
0010
0100
1010
0100
1000
0100
1011
0010
0100
1000
,
0011
0010
0100
1000
0011
0010
0100
1000
0011
0010
0100
1000
1100
0100
0010
0001
,
1100
0100
0010
0001
1100
0110
0011
0001
1100
0110
0011
0001
2102
0010
0100
0010
,
3010
0100
1000
0100
1010
0100
0210
1000
0010
1000
0310
0100
2010
0100
0010
0100
,
3010
0000
0100
0000
1010
0000
0100
0000
0210
0000
1000
0300
2010
0000
0100
0000
0010
0000
0100
0000
3010
0000
0100
0003
0201
0000
1000
0000
0321
0000
1000
0000
,
0132
0010
0100
1000
0213
1000
0010
0001
1320
0100
1000
0100
2031
0010
0100
0010
,
3201
0010
1000
0010
0321
0100
1000
0100
1032
0100
0010
0100
2113
0001
3010
0100
,
2011
3100
2010
3001
2011
0100
3010
0001
2110
0001
3010
0100
1102
0010
0103
1000
,
0112
0013
0102
1003
0112
1000
0103
0010
1102
0100
0013
0100
0212
1000
0310
0100
,
2010
0100
3010
0100
2010
0100
3010
0100
1200
0010
1300
0100
0120
1000
0130
0010
,
1200
0010
0310
0100
2010
0100
3010
0100
1200
0010
0310
0100
1020
0100
1030
0100
,
0210
0000
1000
0000
0310
0000
0100
0000
2100
0000
0010
0000
3100
0000
0010
0000
1200
0000
0010
0000
1300
0000
0100
0003
0011
0000
0100
0000
0011
0000
0100
0000
,
0011
1000
0011
1000
0011
0100
0011
0100
0011
1000
0100
0010
1112
0010
0100
1000
,
0123
1000
0100
0100
1001
0100
1000
0100
1001
0100
1000
0100
1131
0010
1100
0010
,
1100
0001
1100
0001
1100
0010
1100
0010
1100
0010
0100
0001
2110
0001
0010
0100
,
0011
0100
0010
0100
0011
0100
0010
0001
0110
0001
0100
0010
3101
0001
0010
0001
,
0110
1000
0100
0010
0011
0010
1000
0100
1001
0100
1000
0010
1120
0001
0100
0001
,
1100
0001
0100
1000
0101
1000
0100
0001
1100
0001
0100
1000
1132
0010
1100
0010
,
1100
0010
1100
0010
1100
0010
1100
0010
1100
0010
1100
0010
1100
0010
0100
1000
,
0110
1000
0100
0010
1100
0010
0100
0010
1100
0100
0010
0100
2013
0100
0010
0001
,
3210
0001
0010
1000
0312
0100
0010
1000
0123
0001
1000
0100
1032
0100
0010
0100
,
2013
0010
0100
0010
3012
0100
0010
0100
0213
1000
0010
0001
1310
0010
0100
0001
,
1010
0100
0010
0100
1001
0010
0100
0010
0101
0010
1000
1000
0101
0010
0100
0010
,
1001
0010
0100
0010
0101
0010
0100
0010
1001
0010
0100
0100
1010
0100
0010
0100
,
1001
0010
0100
0010
1001
0100
0010
0100
1001
0010
0001
0001
1000
0010
0100
0001
,
0010
0100
0010
0100
1000
0010
0100
0010
0001
0100
0010
0010
0001
0010
0100
0010
,
1000
0010
0100
0010
0001
0010
0100
0010
1000
0010
1000
1000
0101
0010
0100
0010
,
1001
0000
0010
0000
0100
0000
0010
0000
0101
0000
0010
0000
0100
0000
0010
0000
1001
0000
0010
0000
0100
0000
0100
0000
1021
0000
0100
0030
0012
0000
0100
0003
,
1021
0000
0100
0030
0012
0000
0100
0003
1210
0000
0001
0300
0012
0000
0100
0003
1210
0000
0001
0300
0011
0000
0100
0000
1210
0000
0001
0300
1020
0000
0100
0030
,
1201
0000
0010
0300
0021
0000
0100
0030
1201
0000
0010
0300
0102
0000
0010
0003
1201
0000
0010
0300
0102
0000
0010
0003
1021
0000
0100
0000
1000
0000
0100
0000
,
1031
0010
0100
0010
1021
0100
1000
0100
1031
0010
0100
0010
1102
0010
0100
1000
,
0113
0001
0010
0100
1102
0010
0100
1000
0113
0001
0010
0100
1010
0100
0010
0001
,
2111
0000
0001
0000
0010
0000
0100
3000
1112
0000
0100
0000
0010
0000
0100
0003
2111
0000
0010
0000
0100
0000
0010
3000
1112
0000
0010
0000
0100
0000
1000
0000
,
0110
0010
0100
1000
0110
0010
0100
1000
0110
0010
0100
1000
2223
0000
0000
0000
,
3331
0000
1022
0033
1022
0033
2212
0000
,
3313
0000
0000
0000
2200
0000
0000
3300
2210
0000
0000
0000
0000
0000
0000
0000
3310
0000
0000
0000
0000
0000
0000
0000
1222
0000
0000
0000
0000
0000
0000
0000
,
1333
0000
0000
0000
0000
0000
0000
0000
1022
0000
0000
0000
0033
0000
0000
0000
1022
0000
0000
0033
2200
0000
0000
3300
1222
0000
0000
0000
0000
0000
0000
0000
,
1333
0000
0000
0000
1000
0000
0000
0000
1220
0000
0330
0010
2221
0000
0000
0000
,
3331
0000
1022
0033
1022
0033
2212
0000
,
3313
0000
0000
0000
2200
0000
0000
3300
2210
0000
0000
0000
0000
0000
0000
0000
3310
0000
0000
0000
0000
0000
0000
0000
1222
0000
0000
0000
0000
0000
0000
0000
,
1333
0000
0000
0000
0000
0000
0000
0000
0100
0000
0000
0000
0000
0000
0000
0000
0010
0000
0000
0000
0000
0000
0000
0000
1022
0000
0000
0000
0000
0000
0000
0000
0000
0000
0000
0000
0033
0000
0000
0000
0000
0000
0000
0000
0000
0000
0000
0000
1022
0000
0000
0000
0000
0000
0000
0000
0000
0033
0000
0000
2210
0000
0000
0000
0000
0000
0000
0000
0000
3300
0000
0000
2122
0000
0000
0000
0000
0000
0000
0000
0000
3000
0000
0000
0200
0000
0000
0000
0000
0000
0000
0000
0000
0300
0000
0000
,
2100
0000
0100
3033
1200
0000
0010
0300
0120
0000
0100
0030
1002
0000
0100
0003
2010
0000
0100
3000
0021
0000
0100
0030
2221
0000
0000
0000
0000
0000
0000
0000
,
3331
0000
1022
0033
1022
0033
2212
0000
,
3313
0000
0000
0000
2200
0000
0000
3300
2210
0000
0000
0000
0000
0000
0000
0000
3310
0000
0000
0000
0000
0000
0000
0000
1222
0000
0000
0000
0000
0000
0000
0000
,
1333
0000
0000
0000
0000
0000
0000
0000
1022
0000
0000
0000
0033
0000
0000
0000
1022
0000
0000
0033
2200
0000
0000
3300
1222
0000
0000
0000
0000
0000
0000
0000
,
1333
0000
0000
0000
0000
0000
0000
0000
1002
0000
0000
0000
0003
0000
0000
0000
0221
0000
1000
0330
0100
0000
0010
0000
2221
0000
0000
0000
0000
0000
0000
0000
,
3331
0000
1022
0033
1022
0033
2212
0000
,
3313
0000
0000
0000
2200
0000
0000
3300
2210
0000
0000
0000
0000
0000
0000
0000
3310
0000
0000
0000
0000
0000
0000
0000
1222
0000
0000
0000
0000
0000
0000
0000
,
1333
0000
0000
0000
0000
0000
0000
0000
0100
0000
0000
0000
0000
0000
0000
0000
0010
0000
0000
0000
0000
0000
0000
0000
1022
0000
0000
0000
0000
0000
0000
0000
0000
0000
0000
0000
0033
0000
0000
0000
0000
0000
0000
0000
0000
0000
0000
0000
1022
0000
0000
0000
0000
0000
0000
0000
0000
0033
0000
0000
2210
0000
0000
0000
0000
0000
0000
0000
0000
3300
0000
0000
1022
0000
0000
0000
0000
0000
0100
0000
0000
0000
0000
0000
1000
0000
0000
0000
0000
0000
0100
0000
0000
0000
0000
0000
,
1000
0100
1003
0100
1002
0100
1003
0100
1002
0100
1003
0100
0201
1000
0001
1000
,
0301
0000
1000
0000
0201
0000
1000
0300
0201
0000
1000
0000
0001
0000
1000
0000
0301
0000
1000
0000
0001
0000
1000
0030
0122
0000
1000
0000
0100
0000
1000
0000
,
0100
1033
0100
0010
0122
1000
0133
0010
0122
1000
2233
0010
3322
0100
1000
0100
,
1000
0133
0010
0001
0110
1000
0100
0010
0001
0010
0100
1000
0122
1000
0100
1000
,
0100
1033
0100
0010
0122
1000
0133
0010
0122
1000
2233
0010
3322
0100
1000
0100
,
1000
0133
1000
0100
0011
0010
0100
1000
0100
0010
0001
0010
0122
1000
0133
0010
,
0101
0010
1100
0110
1022
0100
1033
0100
0011
0010
1100
0110
1022
0100
1033
0100
,
0010
0001
1100
0110
1022
0100
1033
0100
0010
0001
1100
0110
1122
0133
0010
0001
,
1100
0100
0010
0001
1100
0100
0010
0001
1100
0100
0010
0001
0011
0010
0100
1000
,
0011
0010
0100
1000
0011
0010
0100
1000
0011
0010
0100
1000
0111
0001
0010
0100
,
1100
0001
0010
0100
0111
0001
0010
0100
1100
0001
0010
0100
0111
0001
0010
0100
,
1100
0001
0010
0100
0111
1100
0110
0011
0110
1100
0110
0011
2222
0000
0000
0000
,
0000
0000
0000
0000
,
0000
0000
0000
0000
,
0000
3333
0000
0000
;

//---------------dance-single - ----------------
#NOTES:
     dance-single:
     :
     Challenge:
     36:
     1.000,1.000,1.000,1.000,1.000,1386.000,471.000,586.000,0.000,614.000:
0000
0000
0000
0000
0000
0000
0000
0000
0000
0000
0000
0000
0000
0000
0000
0000
0000
0000
0000
0000
0000
0000
0000
0000
0000
0000
0000
0000
0000
0000
0000
0000
0000
0000
0000
0000
0000
0000
0000
0000
0000
0000
0000
0000
0000
0000
0000
0000
2202
0000
0000
0000
0000
0000
0000
0000
0000
0000
0000
0000
0000
0000
0000
0000
0000
0000
0000
0000
0000
0000
3300
0000
2213
0000
0000
0000
0000
0000
0001
0000
0000
3000
0000
0000
1320
0000
0000
0000
0000
0000
0100
0000
0000
0030
0000
0000
,
2120
0000
0031
3000
1020
0000
0001
0030
2102
0000
3010
0003
1020
0000
0001
0030
1202
0000
0310
0003
1020
0000
0001
0030
1202
0000
0310
0003
1020
0000
0001
0030
,
1202
0000
0310
0003
2100
0000
0001
3000
0122
0000
1030
0003
0021
0000
1000
0030
0212
0000
1000
0003
0321
0000
1000
0030
2120
0000
0001
0000
0130
0000
0001
0000
,
3110
1000
0001
1000
2120
0001
0130
0001
3110
1000
0001
1000
0221
1000
0301
0100
,
1031
0010
1000
0001
0221
1000
0301
0100
1031
0010
1000
0001
1100
0001
1000
0010
,
1212
0000
0013
0000
1000
0000
0001
0300
1221
0000
0301
0000
1000
0000
0001
0030
1221
0000
1030
0000
0001
0000
1000
0300
1221
0000
1000
0000
0301
0000
0100
0000
,
1001
1000
0001
0100
1001
1000
0001
0100
1001
1000
0001
0100
2232
0000
0000
0000
,
3313
0000
2122
3033
2122
3033
1222
0000
,
1333
0000
0000
0000
0202
0000
0000
0303
1222
0000
0000
0000
0000
0000
0000
0000
1333
0000
0000
0000
0000
0000
0000
0000
2122
0000
0000
0000
0000
0000
0000
0000
,
3133
0000
0000
0000
0000
0000
0000
0000
2221
0000
0000
0000
3330
0000
0000
0000
2121
0000
0000
3030
0202
0000
0000
0303
2122
0000
0000
0000
0000
0000
0000
0000
,
3133
0000
0100
0000
2122
3033
2212
0000
,
3313
0000
2122
3033
2122
3033
1222
0000
,
1333
0000
0000
0000
0202
0000
0000
0303
1222
0000
0000
0000
0000
0000
0000
0000
1333
0000
0000
0000
0000
0000
0000
0000
2122
0000
0000
0000
0000
0000
0000
0000
,
3133
0000
0000
0000
0000
0000
0000
0000
0001
0000
0000
0000
0010
0000
0000
0000
1000
0000
0000
0000
0000
0000
0000
0000
2220
0000
0000
0000
0000
0000
0000
0000
0000
0000
0000
0000
3330
0000
0000
0000
0000
0000
0000
0000
0000
0000
0000
0000
2120
0000
0000
0000
0000
0000
0000
0000
0000
3030
0000
0000
1202
0000
0000
0000
0000
0000
0000
0000
0000
0303
0000
0000
2222
0000
0000
0000
0000
0000
0003
0000
0000
0300
0000
0000
0202
0000
0000
0000
0000
0000
0300
0000
0000
0003
0000
0000
,
0202
0000
0003
3330
0202
0000
0000
0003
2302
0000
0000
3000
0223
0000
0300
0030
0221
0000
0030
0300
2002
0000
0003
3000
2202
0000
0000
0000
0000
0000
0000
0000
,
3313
0000
2122
3033
2122
3033
1222
0000
,
1333
0000
0000
0000
0202
0000
0000
0303
1222
0000
0000
0000
0000
0000
0000
0000
1333
0000
0000
0000
0000
0000
0000
0000
2122
0000
0000
0000
0000
0000
0000
0000
,
3133
0000
0000
0000
0000
0000
0000
0000
2221
0000
0000
0000
3330
0000
0000
0000
2121
0000
0000
3030
0202
0000
0000
0303
2122
0000
0000
0000
0000
0000
0000
0000
,
3133
0000
0000
0000
0100
0000
0000
0000
2112
0100
3013
0100
2212
0000
0000
0000
,
3313
0000
2122
3033
2122
3033
1222
0000
,
1333
0000
0000
0000
0202
0000
0000
0303
1222
0000
0000
0000
0000
0000
0000
0000
1333
0000
0000
0000
0000
0000
0000
0000
2122
0000
0000
0000
0000
0000
0000
0000
,
3133
0000
0000
0000
0000
0000
0000
0000
0001
0000
0000
0000
0010
0000
0000
0000
1000
0000
0000
0000
0000
0000
0000
0000
2220
0000
0000
0000
0000
0000
0000
0000
0000
0000
0000
0000
3330
0000
0000
0000
0000
0000
0000
0000
0000
0000
0000
0000
2120
0000
0000
0000
0000
0000
0000
0000
0000
3030
0000
0000
1202
0000
0000
0000
0000
0000
0000
0000
0000
0303
0000
0000
2222
0000
0000
0000
0000
0000
0003
0000
0000
0300
0000
0000
0202
0000
0000
0000
0000
0000
0300
0000
0000
0003
0000
0000
,
0202
0000
0003
3330
0202
0000
0000
0003
2302
0000
0000
3000
0223
0000
0300
0030
0221
0000
0030
0300
2012
0000
0103
3000
0121
0000
1000
0000
0001
0000
1000
0000
,
0201
1000
0331
0010
0121
1000
0130
1000
0121
1000
0031
0100
1022
0100
1030
0100
,
1010
0000
0103
0000
1002
0000
0100
0003
0212
0000
1000
0000
0310
0000
0100
0000
1010
0003
0001
0000
1000
0000
0010
0000
1202
0000
0010
0003
1300
0000
0100
0000
,
1012
0010
1003
0001
2210
0001
3010
0301
1120
0031
1002
0013
1220
0001
1000
0301
,
1100
0001
1000
0001
1100
0001
1030
0001
1210
0001
0310
1000
0221
1000
0301
1000
,
0101
1000
0031
0010
0122
1000
0130
1003
0121
1000
0031
0100
1022
0100
1000
0130
,
1010
0000
0103
0000
1002
0000
0100
0003
0212
0000
1000
0000
0310
0000
0100
0000
1010
0003
0001
0000
1000
0000
0010
0000
1202
0000
0310
0000
1003
0000
0100
0000
,
1012
0010
1003
0001
2110
0001
3010
0001
1120
0031
1002
0013
1220
0001
1000
0301
,
1100
0000
0001
0000
1000
0000
0001
0000
1100
0000
0131
0000
1001
0000
1010
0000
1201
0000
1010
0000
1001
0000
1010
0300
2011
0000
0100
0000
3001
0000
0100
0000
,
1010
0100
0001
1000
1201
0010
1300
0001
1201
0010
1300
0001
1021
0100
0001
1030
,
0110
1000
1021
0130
1012
0100
1000
0010
1013
0001
0100
0001
0211
1000
0001
1000
,
0311
1000
0001
0010
1210
0001
1300
0010
1102
0013
1102
1003
0211
1000
0002
1000
,
1323
1000
0132
1000
1123
0001
0130
0001
1200
0010
1300
0001
1221
1000
0001
1000
,
1331
0100
0001
1000
1201
0010
1000
0301
1201
0010
1000
0301
1021
0100
0001
1030
,
0110
1000
1021
0130
1211
0001
1000
0010
1310
0001
0100
0001
0211
1000
0001
1000
,
0321
1000
0132
0010
1213
0001
1000
0310
0101
1000
0101
1000
1021
0100
0001
1030
,
1010
0100
0001
0100
1021
0100
0001
0130
1021
0100
0001
0100
1231
0010
1000
0001
,
1300
0010
1201
0310
1201
0010
1000
0301
1100
0010
1000
0001
1221
1000
0001
1000
,
1331
0001
0100
0001
2020
0001
3100
0001
1132
0103
1021
0130
2201
0010
0000
3301
,
1010
0001
1000
0010
1200
0001
1300
0010
0011
1000
0001
0100
1221
1000
0001
1000
,
1331
0001
0100
0001
1021
0001
1030
0010
1102
0103
1012
0103
2211
0010
0010
3301
,
1100
0001
1000
0010
1100
0001
1000
0010
0021
1030
0002
0103
1012
0010
1003
0001
,
2100
3001
0200
0301
0211
0010
1000
0301
2100
3001
0200
0301
1012
0013
2000
3001
,
1200
0301
0200
0301
1221
0001
1000
0301
1130
0001
0100
0001
1110
1000
0001
0100
,
1010
1000
0001
0100
1010
1000
0001
0100
1010
1000
0001
0100
0101
0001
1000
0010
,
0101
0001
1000
0010
0101
1001
1010
0010
0101
1001
1010
0010
0221
1000
0001
1000
,
1300
0001
0100
0001
1200
0001
1302
0100
1000
0100
1003
0001
1200
0001
1000
0001
,
1300
0000
0001
0000
1200
0000
0001
0000
1302
0000
0100
0003
1200
0000
0001
0000
1000
0000
0001
0000
1300
0000
0001
0030
0012
0000
0100
0000
2013
0000
0100
0000
,
3021
1000
0001
0100
1032
0100
1000
0010
2103
0001
0100
0001
3210
1000
0001
1000
,
0312
1000
0100
1000
2013
0001
0100
0001
3120
0001
1000
0001
1231
0010
1300
0001
,
1210
0301
1200
0310
1220
0001
1330
0010
1201
0010
1300
0001
0121
1000
0031
0100
,
1021
1030
0021
0130
2021
0100
3031
1000
0121
0001
1030
0001
1022
0100
1003
0001
,
1200
0001
1300
0001
1200
0001
1300
0001
0102
1000
0103
0001
2001
0100
3001
1000
,
0102
1000
1003
0001
1200
0001
1300
0001
0102
1000
1003
0001
2100
0001
3100
0001
,
1002
0000
0100
0000
1003
0000
0001
0000
0201
0000
1000
0000
0301
0000
1000
0000
0102
0000
1000
0000
0103
0000
0001
0030
1210
0000
0001
0000
1010
0000
0001
0000
,
1310
0100
1010
0100
1010
0001
1010
0001
1010
0100
0001
1000
1121
1000
0001
0100
,
2031
0100
0001
0001
0110
0001
0100
0001
0110
0001
0100
0001
3121
1000
0101
1000
,
0131
0010
0101
0010
0101
1000
0101
1000
0101
1000
0001
0010
1201
0010
1000
0001
,
1020
0001
1000
0001
1001
0001
1030
0010
1001
0010
0001
1300
0211
0010
1000
0010
,
1301
0100
0001
1000
2010
0001
0100
0001
3110
0001
0100
1000
2101
0010
0001
0010
,
0101
0010
0001
0100
0011
0100
0001
0010
0101
0010
0001
0100
3121
1000
0101
1000
,
0101
1000
0101
1000
0101
1000
0101
1000
0101
1000
0101
1000
0101
1000
0001
0100
,
1001
0100
0001
1000
0101
1000
0001
1000
0101
0001
1000
0001
1230
0001
1000
0010
,
1302
0010
1000
0100
1023
0001
1000
0100
2031
0010
0100
0001
3120
0001
1000
0001
,
1230
1000
0001
1000
1320
0001
1000
0001
1032
0100
1000
0010
1103
1000
0001
0010
,
1100
0001
1000
0001
0110
1000
0001
1000
0011
1000
0100
0100
0011
1000
0001
1000
,
0110
1000
0001
1000
0011
1000
0001
1000
0110
1000
0001
0001
1100
0001
1000
0001
,
0110
1000
0001
1000
0110
0001
1000
0001
0110
1000
0010
0010
0101
1000
0001
0010
,
1100
0001
1000
0001
0110
1000
0001
1000
0110
0001
1000
1000
0011
1000
0001
1000
,
0110
1000
0001
1000
0110
1000
0001
1000
0110
1000
0100
0100
0011
1000
0001
1000
,
0110
0000
1000
0000
0001
0000
1000
0000
0011
0000
1000
0000
0001
0000
1000
0000
0110
0000
1000
0000
0001
0000
0001
0000
2210
0000
0001
3000
1320
0000
0000
0030
,
2120
0000
0031
3000
1020
0000
0001
0030
2102
0000
3010
0003
1020
0000
0001
0030
1202
0000
0310
0003
1020
0000
0001
0030
1202
0000
0310
0003
1020
0000
0001
0030
,
1202
0000
0310
0003
2100
0000
0001
3000
0122
0000
1030
0003
0021
0000
1000
0030
0212
0000
1000
0003
0321
0000
1000
0030
2120
0000
0001
0000
0130
0000
0001
0000
,
3110
1000
0001
1000
2120
0001
0130
0001
3110
1000
0001
1000
0221
1000
0301
0100
,
1031
0010
1000
0001
0221
1000
0301
0100
1031
0010
1000
0001
1100
0001
1000
0010
,
1212
0000
0013
0000
1000
0000
0001
0300
1221
0000
0301
0000
1000
0000
0001
0030
1221
0000
1030
0000
0001
0000
1000
0300
1221
0000
1000
0000
0301
0000
0100
0000
,
1001
1000
0001
0100
1001
1000
0001
0100
1001
1000
0001
0100
2232
0000
0000
0000
,
3313
0000
2122
3033
2122
3033
1222
0000
,
1333
0000
0000
0000
0202
0000
0000
0303
1222
0000
0000
0000
0000
0000
0000
0000
1333
0000
0000
0000
0000
0000
0000
0000
2122
0000
0000
0000
0000
0000
0000
0000
,
3133
0000
0000
0000
0000
0000
0000
0000
2221
0000
0000
0000
3330
0000
0000
0000
2121
0000
0000
3030
0202
0000
0000
0303
2122
0000
0000
0000
0000
0000
0000
0000
,
3133
0000
0000
0000
0100
0000
0000
0000
2122
0000
3033
0110
2212
0000
0000
0000
,
3313
0000
2122
3033
2122
3033
1222
0000
,
1333
0000
0000
0000
0202
0000
0000
0303
1222
0000
0000
0000
0000
0000
0000
0000
1333
0000
0000
0000
0000
0000
0000
0000
2122
0000
0000
0000
0000
0000
0000
0000
,
3133
0000
0000
0000
0000
0000
0000
0000
0001
0000
0000
0000
0010
0000
0000
0000
1000
0000
0000
0000
0000
0000
0000
0000
2220
0000
0000
0000
0000
0000
0000
0000
0000
0000
0000
0000
3330
0000
0000
0000
0000
0000
0000
0000
0000
0000
0000
0000
2120
0000
0000
0000
0000
0000
0000
0000
0000
3030
0000
0000
1202
0000
0000
0000
0000
0000
0000
0000
0000
0303
0000
0000
2222
0000
0000
0000
0000
0000
0003
0000
0000
0300
0000
0000
0102
0000
0000
0000
0000
0000
0100
0000
0000
0003
0000
0000
,
0102
0000
0103
3030
2002
0000
3010
0003
2002
0000
0010
3000
0223
0000
1300
0030
0221
0000
1030
0300
2002
0000
0013
3000
2202
0000
0000
0000
0010
0000
0000
0000
,
3313
0100
2122
3133
2122
3133
1222
1000
,
1333
0000
0000
0000
0212
0000
0000
0303
1222
0000
0000
0000
1000
0000
0000
0000
1333
0000
0000
0000
0100
0000
0000
0000
2122
0000
0000
0000
0100
0000
0000
0000
,
3133
0000
0000
0000
0010
0000
0000
0000
2221
0000
0000
0000
3331
0000
0000
0000
2121
0000
0000
3030
0212
0000
0000
0303
2122
0000
0000
0000
0100
0000
0000
0000
,
3133
0000
0010
0000
0100
0000
0010
0000
2112
0110
3113
0011
2212
0000
0010
0000
,
3313
0100
2122
3133
2122
3133
1222
1000
,
1333
0000
0000
0000
0212
0000
0000
0303
1222
0000
0000
0000
1000
0000
0000
0000
1333
0000
0000
0000
0010
0000
0000
0000
2122
0000
0000
0000
0100
0000
0000
0000
,
3133
0000
0000
0000
0000
0000
0000
0000
0001
0000
0000
0000
0010
0000
0000
0000
1000
0000
0000
0000
0000
0000
0000
0000
2220
0000
0000
0000
0000
0000
0000
0000
0000
0000
0000
0000
3331
0000
0000
0000
0000
0000
0000
0000
0000
0000
0000
0000
2120
0000
0000
0000
0000
0000
0000
0000
0000
3030
0000
0000
1101
0000
0000
0000
0000
0000
1102
0000
0000
0000
0000
0000
2120
0000
0000
0003
0000
0000
0001
0000
0000
0000
0000
0000
0100
0000
0000
0000
0000
0000
0001
0000
0000
0000
0000
0000
,
0100
0001
0130
0001
0120
0001
0130
0001
0120
0001
0130
0001
0012
0100
0010
0100
,
0013
0000
0100
0000
0012
0000
0100
0003
0012
0000
0100
0000
0010
0000
0100
0000
0013
0000
0100
0000
0010
0000
0100
3000
2021
0000
0100
0000
0001
0000
0100
0000
,
0001
3130
0001
1000
2021
0100
3031
1000
2021
0100
3232
1000
2323
0001
0100
0001
,
0100
3031
1000
0010
1002
0100
0100
1000
0013
1000
0001
0100
2021
0100
0001
0100
,
0001
3130
0001
1000
2021
0100
3031
1000
2021
0100
3232
1000
2323
0001
0100
0001
,
0100
3031
0100
0001
1020
1000
0001
0100
0032
1000
0203
1000
2321
0100
3031
1000
,
0021
1000
0231
1001
2321
0001
3130
0001
1020
1000
0231
1001
2321
0001
3230
0001
,
2300
0010
3201
1001
2321
0001
3130
0001
2000
0010
3201
1001
2301
0001
3010
0010
,
0101
0001
1000
0010
0101
0001
1000
0010
0101
0001
1000
0010
1010
1000
0001
0100
,
1010
1000
0001
0100
1010
1000
0001
0100
1010
1000
0001
0100
1111
0010
1000
0001
,
1101
0010
1000
0001
1111
0010
1000
0001
1101
0010
1000
0001
1111
0010
1000
0001
,
1101
0010
1000
0001
1111
0111
1110
0111
1110
0111
1110
0111
2222
0000
0000
0000
,
0000
0000
0000
0000
,
0000
0000
0000
0000
,
0000
3333
0000
0000
;

//---------------dance-solo - ----------------
#NOTES:
     dance-solo:
     :
     Hard:
     34:
     1.000,1.000,1.000,1.000,1.000,1437.000,548.000,415.000,0.000,638.000:
000000
000000
000000
000000
000000
000000
000000
000000
000000
000000
000000
000000
000000
000000
000000
000000
020200
000000
000000
000000
000000
000000
000000
000000
130321
000000
010000
000000
001230
000000
010000
000300
,
100021
000000
010000
000030
001200
000000
010000
000300
100021
000000
010000
000030
001200
000000
010000
000300
100021
000000
010000
000030
001200
000000
010000
000300
100012
000000
010000
000003
001200
000000
010000
000300
,
100012
000000
000100
000003
001200
000000
010000
000300
100012
000000
010000
000003
001200
000000
010000
000300
100012
000000
010000
000003
001200
000000
010000
000300
100012
000000
001000
000000
000100
000000
001000
000000
,
100013
001000
000100
001000
010012
001000
000100
001000
100013
001000
000100
001000
010120
001000
010000
100000
,
010130
001000
010000
100000
010020
001000
010000
100000
010130
001000
010000
100000
001010
010100
001010
000101
,
211010
000000
000101
000000
001010
000000
010100
300000
001211
000000
010010
000000
001001
000000
010010
000300
211100
000000
000101
000000
001010
000000
010100
300000
111202
000000
000010
000000
001000
000000
010000
000000
,
110320
001100
110000
011000
110000
001100
110000
011000
110000
001100
011000
110000
212133
000000
000001
000000
,
313000
000001
012200
003301
012200
003301
212120
000001
,
313030
000000
000000
000000
002201
000000
000000
003300
012020
000000
000000
000000
000001
000000
000000
000000
013030
000000
000000
000000
000001
000000
000000
000000
212120
000000
000000
000000
000001
000000
000000
000000
,
313030
000000
000000
000000
000001
000000
000000
000000
010220
000000
000000
000000
000331
000000
000000
000000
012200
000000
000000
003300
000221
000000
000000
000330
212120
000000
000000
000000
000001
000000
000000
000000
,
313030
000000
000000
000000
000001
000000
000000
000000
010000
000000
000000
000000
000001
000000
000000
000000
010220
000000
000000
000330
000001
000000
000000
000000
212120
000000
000000
000000
000001
000000
000000
000000
,
313030
000001
012020
003031
012020
003031
212120
000001
,
313030
000000
000000
000000
002021
000000
000000
003030
010220
000000
000000
000000
000001
000000
000000
000000
010330
000000
000000
000000
000001
000000
000000
000000
212120
000000
000000
000000
000001
000000
000000
000000
,
313030
000000
000000
000000
000000
000000
000000
000000
001000
000000
000000
000000
000001
000000
000000
000000
000100
000000
000000
000000
000000
000000
000000
000000
010220
000000
000000
000000
000000
000000
000000
000000
000000
000000
000000
000000
000331
000000
000000
000000
000000
000000
000000
000000
000000
000000
000000
000000
010220
000000
000000
000000
000000
000000
000000
000000
000000
000330
000000
000000
022001
000000
000000
000000
000000
000000
000000
000000
000000
033000
000000
000000
210212
000000
000000
000000
000000
000000
000000
000000
000000
300000
000000
000000
001020
000000
000000
000000
000000
000000
000000
000000
000000
000030
000000
000000
,
012000
000000
000000
003303
100021
000000
000000
000030
012000
000000
000100
003000
000210
000000
000001
000300
210000
000000
001000
300000
000020
000000
000001
000030
212120
000000
000000
000000
000001
000000
000000
000000
,
313030
000001
012200
003301
012200
003301
212120
000001
,
313030
000000
000000
000000
002201
000000
000000
003300
012020
000000
000000
000000
000001
000000
000000
000000
013030
000000
000000
000000
000001
000000
000000
000000
212120
000000
000000
000000
000001
000000
000000
000000
,
313030
000000
000000
000000
000001
000000
000000
000000
010220
000000
000000
000000
000331
000000
000000
000000
012200
000000
000000
003300
000221
000000
000000
000330
212120
000000
000000
000000
000001
000000
000000
000000
,
313030
000000
000000
000000
000001
000000
000000
000000
010000
000000
000000
000000
000001
000000
000000
000000
010220
000000
010000
000330
000001
000000
000001
000000
212120
000000
000000
000000
000001
000000
000000
000000
,
313030
000001
012020
003031
012020
003031
212120
000001
,
313030
000000
000000
000000
002021
000000
000000
003030
010220
000000
000000
000000
000001
000000
000000
000000
010330
000000
000000
000000
000001
000000
000000
000000
212120
000000
000000
000000
000001
000000
000000
000000
,
313030
000000
000000
000000
000000
000000
000000
000000
001000
000000
000000
000000
000001
000000
000000
000000
000100
000000
000000
000000
000000
000000
000000
000000
010220
000000
000000
000000
000000
000000
000000
000000
000000
000000
000000
000000
000331
000000
000000
000000
000000
000000
000000
000000
000000
000000
000000
000000
010220
000000
000000
000000
000000
000000
000000
000000
000000
000330
000000
000000
022001
000000
000000
000000
000000
000000
000000
000000
000000
033000
000000
000000
210212
000000
000000
000000
000000
000000
000000
000000
000000
300000
000000
000000
001020
000000
000000
000000
000000
000000
000000
000000
000000
000030
000000
000000
,
012000
000000
000000
000000
000000
000000
000000
000000
000303
003000
000000
000000
100021
000000
000000
000000
000000
000000
000000
000000
000000
000030
000000
000000
012000
000000
000000
000000
000000
000000
000100
000000
000000
003000
000000
000000
000200
000000
000000
000000
000000
000000
000010
000000
000000
000300
000000
000000
210000
000000
000000
000000
000000
000000
001000
000000
000000
300000
000000
000000
000120
000000
000000
000000
000000
000000
000001
000000
000000
000030
000000
000000
111002
000000
000000
000000
000000
000000
000100
000000
000000
000000
000000
000000
001000
000000
000000
000000
000000
000000
000100
000000
000000
000000
000000
000000
,
110000
000100
001003
000100
100012
001000
010003
001000
100012
001000
010003
001000
020011
000100
001000
100000
,
000011
000000
030100
000000
021000
000000
100000
030000
020011
000000
000100
000000
001000
000000
100000
000000
000011
030000
000100
000000
001000
000000
010000
000000
021001
000000
000100
000000
031000
000000
100000
000000
,
021010
000100
031000
010000
002101
010000
103000
010000
000211
001300
120000
030010
100201
010000
001000
000010
,
100001
010000
001000
000010
100001
010000
001300
000010
200101
001000
300100
001000
100021
000100
010000
001000
,
100001
001000
010030
000100
010021
001000
100030
001000
010021
001000
010030
100000
021100
000001
000010
000001
,
001100
000000
030001
000000
020010
000000
000001
030000
021100
000000
000001
000000
000010
000000
000001
000000
001100
030000
000001
000000
000010
000000
000001
000000
120010
000000
000100
000000
031000
000000
100000
000000
,
020011
000100
031000
010000
100120
001000
000130
010000
100201
000310
021000
030100
100012
010000
001000
000100
,
100010
000000
010000
000000
001000
000000
000100
000000
101000
000000
010100
000000
001013
000000
000101
000000
211000
000000
000110
000000
011000
000000
000110
300000
011101
000000
100000
000000
010000
000000
001000
000000
,
000101
001000
010000
001000
100101
000010
001000
010000
101001
000100
001000
100000
011101
100000
010000
001000
,
100001
000010
011100
000010
011001
100000
001000
000010
001001
000100
001000
010000
100111
001000
010000
000100
,
001001
010000
001000
000100
101001
010000
001000
000100
110001
001000
010110
001000
110101
001000
000100
001000
,
010001
000100
110000
001000
100101
010000
001000
000100
010001
000100
001000
000010
110101
001000
010000
000100
,
001001
100000
010000
000100
101001
000100
001000
010000
101001
000100
001000
010000
001111
100000
010000
001000
,
100001
000010
011100
100000
001011
010000
001000
000100
001001
010000
000100
001000
111001
000100
010000
001000
,
000101
001000
110000
000010
101001
010000
001000
000100
100001
001000
100100
001000
011101
100000
010000
000100
,
001001
100000
001000
010000
001101
100000
001000
000010
010101
100000
010000
000100
110011
000100
001000
000010
,
001001
000100
110010
000100
101001
000100
001000
010000
001001
000100
001000
010000
100111
001000
010000
001000
,
000101
010000
100000
010000
001101
010000
001000
000100
011001
000010
011100
100000
011001
000100
001000
010000
,
101001
010000
001000
000100
001001
010000
001000
000010
100101
001000
010000
100000
110111
001000
000100
000100
,
001001
010000
100000
010000
001101
010000
001000
000100
110011
000100
011010
100000
011101
000010
001000
010000
,
001001
100000
001000
000100
100001
010000
001000
000010
000101
001000
010000
100000
011011
000100
001000
010000
,
001001
010000
100000
000100
011001
000100
001000
010000
001001
010000
100000
010000
101101
000010
001000
010000
,
100001
010000
000010
001000
010101
000010
001000
010000
001001
100000
001000
000010
100011
000100
001000
010000
,
100011
000100
001000
010000
100011
000100
001000
010000
100011
000100
001000
010000
110001
001000
000100
000010
,
110001
001000
000100
000010
110001
011000
001100
000110
110001
011000
001100
000110
100221
001000
000001
010000
,
101030
000001
000010
010000
101010
010000
001002
000010
101000
000010
001003
010000
001021
100000
001000
100000
,
001031
000000
000010
000000
101000
000000
010000
000000
021001
000000
100000
030000
200010
000000
000001
000000
001000
000000
000010
000000
301000
000000
010000
000300
022011
000000
100000
000000
030010
000000
100000
000000
,
013102
001000
010000
100000
010123
100000
010000
000100
102031
000010
100000
010000
203110
001000
010000
001000
,
320110
001000
100000
001000
032110
000001
000010
000001
103012
010000
000100
001000
210013
000001
300010
010000
,
200101
310000
200010
300001
201001
010000
300010
000001
210100
000001
300010
010000
000211
010000
000301
000010
,
010201
001300
000201
000310
010201
000010
000301
010000
000211
000001
010300
001000
020211
100000
030010
001000
,
200011
010000
300010
001000
200011
010000
300010
010000
020011
001000
130000
010000
001012
100000
000013
001000
,
120010
000001
030010
001000
210010
001000
300010
001000
120010
000001
030010
010000
102010
000001
003010
000001
,
101002
000000
000010
000000
001003
000000
000001
000000
100021
000000
001000
000000
000031
000000
001000
000000
100012
000000
001000
000000
000013
000000
000001
000300
001221
000000
010000
000000
001001
000000
010000
000000
,
001301
010000
001001
100000
001001
100000
001001
010000
001001
100000
010001
001000
101231
010000
000001
010000
,
002311
100000
000001
000001
100100
000001
010000
000001
100100
000001
100000
000001
103121
001000
100001
001000
,
100001
001000
100001
001000
100001
001000
100001
001000
100001
001000
100001
000100
201031
000100
001000
000001
,
001100
000001
001000
000001
001100
000001
001000
000100
001001
000100
000001
001000
310221
100000
001000
000001
,
011000
100000
010000
001000
001031
001000
100000
010000
100001
010000
100000
001000
102312
000100
000010
010000
,
100010
000100
000010
000100
100010
010000
000010
000100
100010
000100
010010
000100
103213
001000
100010
001000
,
100010
001000
100010
001000
100012
001000
100010
001000
100010
001000
100010
001000
100010
001000
010000
100000
,
010010
100000
010000
001000
100010
001000
010000
001000
100010
010000
001000
010000
201313
010000
001000
000100
,
320011
000100
001000
100000
031210
000001
000010
100000
012301
000010
000100
010000
103021
010000
001000
010000
,
100132
001000
000100
000010
101203
010000
001000
000010
121300
000010
001000
000100
130011
001000
010001
000100
,
101010
010000
001010
010000
100101
001000
010000
001000
010110
001000
100001
001000
010101
001000
010001
001000
,
100110
001000
010010
001000
010101
001000
010000
001000
100110
001000
010001
000100
101001
010000
001001
010000
,
100110
001000
010010
001000
100101
010000
001000
010000
100110
001000
010001
000100
100001
001000
010001
000100
,
001010
010000
001010
010000
100001
001000
010000
001000
000110
010000
001010
100000
000101
001000
010001
001000
,
100010
001000
010010
001000
000101
001000
010000
001000
100010
001000
100001
100000
010110
001000
010010
001000
,
100101
000000
001000
000000
010001
000000
001000
000000
010110
000000
001000
000000
010000
000000
001000
000000
100101
000000
001000
000000
010010
000000
001000
000000
100021
000000
010000
000030
001200
000000
010000
000300
,
100021
000000
010000
000030
001200
000000
010000
000300
100021
000000
010000
000030
001200
000000
010000
000300
100021
000000
010000
000030
001200
000000
010000
000300
100012
000000
010000
000003
001200
000000
010000
000300
,
100012
000000
000100
000003
001200
000000
010000
000300
100012
000000
010000
000003
001200
000000
010000
000300
100012
000000
010000
000003
001200
000000
010000
000300
100012
000000
001000
000000
000100
000000
001000
000000
,
100013
001000
000100
001000
010012
001000
000100
001000
100013
001000
000100
001000
010120
001000
010000
100000
,
010130
001000
010000
100000
010020
001000
010000
100000
010130
001000
010000
100000
001010
010100
001010
000101
,
211010
000000
000101
000000
001010
000000
010100
300000
001211
000000
010010
000000
001001
000000
010010
000300
211100
000000
000101
000000
001010
000000
010100
300000
111202
000000
000010
000000
001000
000000
010000
000000
,
110320
001100
110000
011000
110000
001100
110000
011000
110000
001100
011000
110000
222133
000000
000000
000000
,
333000
000000
100022
000033
100022
000033
221200
000000
,
331300
000000
000000
000000
002002
000000
000000
003003
002012
000000
000000
000000
000000
000000
000000
000000
003013
000000
000000
000000
000000
000000
000000
000000
122200
000000
000000
000000
000000
000000
000000
000000
,
133300
000000
000000
000000
000000
000000
000000
000000
010220
000000
000000
000000
000330
000000
000000
000000
100220
000000
000000
000330
220000
000000
000000
330000
122200
000000
000000
000000
000000
000000
000000
000000
,
033310
000000
000000
000000
000010
000000
000000
000000
022010
000000
033000
001000
222100
000000
000000
000000
,
333100
000000
100022
000033
100022
000033
221200
000000
,
331300
000000
000000
000000
000202
000000
000000
000303
001202
000000
000000
000000
000000
000000
000000
000000
001303
000000
000000
000000
000001
000000
000000
000000
122200
000000
000000
000000
000000
000000
000000
000000
,
133301
000000
000000
000000
000000
000000
000000
000000
010010
000000
000000
000000
000000
000000
000000
000000
001100
000000
000000
000000
000000
000000
000000
000000
100022
000000
000000
000000
000000
000000
000000
000000
000000
000000
000000
000000
000033
000000
000000
000000
000000
000000
000000
000000
000000
000000
000000
000000
100022
000000
000000
000000
000000
000000
000000
000000
000000
000033
000000
000000
220010
000000
000000
000000
000000
000000
000000
000000
000000
330000
000000
000000
210212
000000
000000
000000
000000
000000
000000
000000
000000
300000
000000
000000
021000
000000
000000
000000
000000
000000
000000
000000
000000
030000
000000
000000
,
210000
000000
010000
300303
001200
000000
000010
000300
100020
000000
010000
000030
001002
000000
000100
000003
002010
000000
000100
003000
200010
000000
000001
300000
222100
000000
000000
000000
000010
000000
000000
000000
,
333100
000010
100022
001033
100022
001033
221200
000010
,
331300
000000
000000
000000
220010
000000
000000
330000
221000
000000
000000
000000
000010
000000
000000
000000
331000
000000
000000
000000
000010
000000
000000
000000
122200
000000
000000
000000
000001
000000
000000
000000
,
133300
000000
000000
000000
000001
000000
000000
000000
010220
000000
000000
000000
000331
000000
000000
000000
100220
000000
000000
000330
220001
000000
000000
330000
122200
000000
000000
000000
000001
000000
000000
000000
,
133300
000000
000000
000000
000001
000000
000000
000000
100200
000000
000000
000300
000001
000000
000000
000000
022100
000000
000100
000000
033001
000000
000001
000000
222100
000000
000000
000000
000001
000000
000000
000000
,
333100
000001
102200
003301
102200
003301
221200
000001
,
331300
000000
000000
000000
000212
000000
000000
000303
001202
000000
000000
000000
000010
000000
000000
000000
001303
000000
000000
000000
000001
000000
000000
000000
122200
000000
000000
000000
000001
000000
000000
000000
,
133311
000000
000000
000000
000000
000000
000000
000000
010100
000000
000000
000000
000001
000000
000000
000000
001100
000000
000000
000000
000000
000000
000000
000000
100220
000000
000000
000000
000000
000000
000000
000000
000000
000000
000000
000000
000331
000000
000000
000000
000000
000000
000000
000000
000000
000000
000000
000000
100220
000000
000000
000000
000000
000000
000000
000000
000000
000330
000000
000000
220101
000000
000000
000000
000000
000000
000000
000000
000000
330000
000000
000000
102012
000000
000000
000000
000000
000000
010000
000000
000000
000000
000000
000000
100000
000000
000000
000000
000000
000000
010000
000000
000000
000000
000000
000000
,
100010
010000
100003
010000
100012
010000
100003
010000
100012
010000
100003
010000
000112
100000
000100
100000
,
000113
000000
100000
000000
000012
000000
100000
000003
000112
000000
100000
000000
000100
000000
100000
000000
000113
000000
100000
000000
000100
000000
010000
003000
100122
000000
010000
000000
000100
000000
010000
000000
,
100100
010033
000100
001000
110022
001000
010033
001000
010022
100000
220033
001000
330022
010000
100000
010000
,
100000
010033
000010
000100
011010
100000
010000
001000
000110
001000
010000
100000
011022
100000
010000
100000
,
010000
001033
010000
001000
010022
100000
010033
001000
010022
100000
220033
001000
330022
010000
001000
010000
,
100100
001033
100000
010000
000101
001000
010000
100000
010011
001000
010000
100000
001221
010000
001330
000100
,
001010
000100
011000
001100
100221
001000
010330
001000
000111
000100
011000
001100
100221
001000
010330
001000
,
000101
000010
011000
001100
102201
010000
103300
010000
001001
000100
110000
011000
102211
013300
001000
000100
,
011001
001000
000100
000010
011001
001000
000100
000010
011001
001000
000100
000010
100011
000010
000100
001000
,
100011
000010
000100
001000
100011
000010
000100
001000
100011
000010
000100
001000
101101
000100
001000
010000
,
101101
000100
001000
010000
101101
000100
001000
010000
101101
000100
001000
010000
110101
000010
000100
001000
,
110101
000010
000100
001000
101110
011100
001110
000111
101100
011100
001110
000111
222222
000000
000000
000000
,
000000
000000
000000
000000
,
000000
000000
000000
000000
,
000000
333333
000000
000000
;

//---------------dance-solo - ----------------
#NOTES:
     dance-solo:
     :
     Challenge:
     35:
     1.000,1.000,1.000,1.000,1.000,1419.000,507.000,500.000,0.000,784.000:
000000
000000
000000
000000
000000
000000
000000
000000
202202
000000
000000
000000
323313
001000
030210
000001
,
000321
000100
002130
010000
103120
010000
001032
000100
021013
001000
130200
000010
021300
000010
031020
000001
,
021130
100000
031020
100000
012130
010000
003210
001000
020310
001000
030210
001000
010322
001000
000100
001000
,
010133
100000
010000
100000
012200
100000
010000
100000
013310
001000
000100
000010
221001
000010
000100
001000
,
331100
000010
000001
000100
021020
000100
100000
000001
031130
001000
100000
010000
001010
000100
010000
100000
,
010212
001000
010010
010000
112323
000100
010001
000100
123230
001000
100010
001000
232310
010000
000110
010000
,
000011
010000
000101
010000
003011
011000
001100
000110
000011
000011
000110
301100
212212
000000
000010
000000
,
313313
000000
010000
000000
122100
000000
000010
033000
011220
000000
010000
000330
212212
000000
000000
000000
,
313313
000220
122330
033010
011100
001000
212212
000010
,
313313
000000
000000
000000
000000
000000
001000
000000
000000
000000
000000
000000
022210
000000
000000
000000
000000
000000
000010
000000
000000
033300
000000
000000
001022
000000
000000
000000
000000
000000
022000
000000
000000
000033
033000
000000
102200
000000
000000
000000
000000
000000
000010
000000
000000
000000
000000
000000
,
013310
001000
001100
000100
110000
001000
022210
000010
,
133310
000000
001000
000000
000122
000000
010000
000033
000122
000000
001000
000033
212212
000000
010000
000000
,
313313
000000
002200
000000
123321
000000
000100
030030
110100
000000
001000
000000
000122
000000
001000
000000
,
110033
000000
000000
000000
001000
000000
000000
000000
000100
000000
000000
000000
220011
000000
000000
000000
000000
000000
000100
000000
000000
000000
000000
000000
331200
000000
000000
000000
000000
000000
000010
000000
000000
000300
000000
000000
221000
000000
000000
000000
030000
000000
002100
000000
000000
000000
000000
000000
,
003210
000321
300132
000123
001230
012300
223211
000010
,
331311
000000
000010
000000
222100
000000
000010
333000
000212
000000
010000
000000
102323
000000
010000
003030
,
100110
000000
000022
000000
220133
000000
000100
000000
331000
000000
000010
000000
012212
000000
010000
003303
,
111000
000000
000100
000000
222100
000000
000010
333000
102200
000000
023320
000000
031232
000000
010000
000303
,
111000
000000
000100
000000
112200
000000
000010
003300
110110
000000
001000
000000
022210
000000
000010
033300
,
110110
000000
001000
000000
220110
000000
000010
330000
002210
000000
010000
003300
022210
000000
000010
033300
,
111000
000000
000220
000330
210220
000000
010000
300330
111000
000000
000100
000000
022210
000000
000010
033300
,
001000
000000
000100
000000
000010
000000
220011
000000
000000
000100
000000
000000
331011
000000
000000
000100
000000
000000
221002
000000
000000
032100
000000
000000
,
003210
000000
001320
000000
001230
000000
012300
000000
323213
000010
001000
000010
132300
000100
000010
000001
,
003110
000100
001000
010000
100200
010000
001000
010300
100200
010000
001000
010300
200100
001000
000010
310000
,
001100
000100
002010
003100
002010
000001
000010
003100
010010
001000
000100
000010
120200
001000
100000
030310
,
000101
000100
001000
010000
102200
010000
100000
013300
101022
000133
002200
003310
220001
000010
000100
001000
,
000110
000010
000001
330010
010100
001000
010000
100000
012000
100000
000100
003010
000201
000010
001000
010300
,
101000
010000
001000
010000
102100
000010
000001
003010
220100
031000
010000
301000
020100
000010
000100
000010
,
031001
000010
002200
103300
012200
100000
013300
001000
000110
001000
010000
100000
010220
001000
010000
100330
,
010100
001000
010000
100000
002210
010000
100000
013300
001220
001000
220330
330100
220010
000001
000010
330100
,
011000
000100
000010
000001
010100
001010
000101
010100
212120
000101
010100
303131
010111
001000
010000
001000
,
100100
000010
000100
000100
011010
100000
010000
100000
001110
000001
000010
000100
111010
000100
000010
000100
,
101000
000010
111000
000100
011100
000010
000001
000010
001100
010000
001000
000100
111010
000001
000100
001000
,
000110
010000
001000
000100
011100
000010
000001
000010
001100
010000
000110
100000
001011
000100
001000
010000
,
101000
000100
000010
010000
001100
000100
000010
000001
111000
000010
000100
000010
011101
100000
010000
001000
,
011000
100000
001000
000010
110100
001000
000100
000010
011100
000010
000100
001000
100110
010000
001000
000100
,
001100
000100
110000
000010
011100
000001
000010
000100
000110
000001
001000
000100
111010
000001
000100
001000
,
011000
100000
010000
100000
011110
000001
000010
000100
010010
000001
000010
010000
102101
010000
000100
010000
,
100100
000010
000001
003010
010200
001000
010000
100300
001200
010000
001000
000310
002010
000100
010000
103000
,
010000
001000
000120
001030
010020
100000
010000
001030
000100
001000
000010
000001
022100
000010
000001
033010
,
010100
001000
100000
000000
021020
000100
001000
030130
220010
330100
012200
100000
013322
001000
010000
100000
,
010133
001000
010000
100000
010000
001000
010000
000100
000011
001000
010000
100000
022100
000100
000010
000001
,
133010
000100
001000
010000
102200
010000
100000
013300
001022
010033
100022
010033
001022
000100
001000
010033
,
101000
010000
001000
010000
100000
001000
000100
010000
001000
000100
000010
000100
221000
000100
000010
330001
,
001100
010000
001000
000100
220010
001000
000100
330010
000100
001000
000100
000010
221000
000100
000010
330100
,
011000
000100
010000
100000
012200
100000
010000
103300
001100
001000
000100
000010
101000
010000
001000
000100
,
101000
010000
001000
000100
101000
010000
001000
000100
101000
010000
001000
000100
000101
000010
000100
001000
,
000101
000010
000100
001000
000101
001010
010100
101000
010101
001010
000101
010100
112012
000100
010000
000100
,
110000
000100
010000
000100
113203
010000
001000
010000
001010
010000
001000
000310
021010
000100
001000
030100
,
001010
000100
002010
003100
002110
003100
002010
000100
010100
010000
100000
013000
210100
001000
000100
301000
,
021100
000010
000100
030010
002101
000010
000100
003010
001210
010000
100000
010300
011020
001000
000100
001030
,
110002
001000
000100
001003
010120
001000
010000
001030
110200
001000
000010
001300
221010
001000
000010
331000
,
221000
330010
220100
330010
220001
000010
330100
000010
220001
000010
000100
331000
002120
010000
000100
013030
,
002120
103030
002120
013030
002120
100000
003130
000001
002120
000100
010000
003130
120200
001000
100000
031300
,
202010
010000
000100
313000
020210
001000
000001
031300
002021
000100
000001
003130
020210
001000
000010
130300
,
002120
010000
100000
013030
102002
000100
000010
003103
021020
100000
001000
030130
201200
000010
000001
300310
,
022010
000100
000010
033100
002120
010000
100000
013030
220100
000010
000001
330010
022100
100000
000100
000010
,
000101
000010
000100
100000
000110
000010
000001
033010
001100
001000
010000
100000
010220
001000
010000
100000
,
011000
001000
010000
100000
010001
001000
010000
100330
010100
001000
000100
000010
002102
010000
100000
010000
,
010100
000010
000100
010000
100100
010000
000100
003013
010100
001000
010000
100000
012200
100000
010000
100000
,
010010
000010
000001
000010
010010
100000
010000
003310
000101
000100
001000
000100
021020
000100
001000
100000
,
001100
000100
000001
000100
101000
001000
000100
030031
010100
001000
010000
001000
220101
000010
000001
000010
,
000101
001000
000100
330010
001001
000010
000100
000010
001001
000010
000100
001000
010022
100000
010000
001000
,
010100
100000
010000
001000
010100
001000
010000
100000
010100
001000
010000
001000
010100
001000
010000
100000
,
010100
001000
010000
100000
010100
001000
000100
001000
010100
100000
010000
001000
200100
001000
010000
301000
,
020100
001000
100000
030000
012000
100000
010000
103000
010200
001000
010000
100300
012000
100000
010000
003100
,
021000
000100
001000
130033
001100
010000
001000
010000
000110
001000
010000
001000
000110
000001
000010
000100
,
011000
100000
010000
001000
110000
000100
001000
000100
001010
000001
000100
000010
001100
010000
001000
000100
,
011000
000010
000100
001000
000110
000001
000010
000100
100000
001000
000100
010000
001000
000010
000100
001000
,
100000
000100
001000
000100
000001
001000
000100
000010
001000
100000
010000
001000
000100
010000
001000
010000
,
000100
001000
000100
001000
110000
000100
001000
000100
001010
100000
010000
001000
000110
001000
010000
001000
,
000110
010000
001000
000100
001010
000100
000010
000100
011000
000010
000100
000010
000101
010000
001000
000100
,
011000
000010
000100
001000
000110
000001
000010
000100
011000
100000
010000
001000
020010
001000
030210
000001
,
000321
000100
002130
010000
103120
010000
001032
000100
021013
001000
130200
000010
021300
000010
031020
000001
,
011130
100000
001020
100000
012130
010000
003210
001000
020310
001000
030210
001000
010322
001000
000100
001000
,
010133
100000
010000
100000
012200
100000
010000
100000
013310
001000
000100
000010
221001
000010
000100
001000
,
331100
000010
000001
000100
021020
000100
100000
000001
031130
001000
100000
010000
001010
000100
010000
100000
,
010212
001000
010010
010000
112323
000100
010001
000100
123230
001000
100010
001000
232310
010000
000110
010000
,
000011
010000
000101
010000
003011
011000
001100
000110
000011
000011
000110
301100
212212
000000
000000
000000
,
313313
000000
000000
000000
122100
000000
000000
033000
011220
000000
000000
000330
212212
000000
000000
000000
,
313313
000220
122330
033000
011100
000000
212212
000000
,
313313
000000
000000
000000
000000
000000
000000
000000
000000
000000
000000
000000
022210
000000
000000
000000
000000
000000
000000
000000
000000
033300
000000
000000
001022
000000
000000
000000
000000
000000
022000
000000
000000
000033
033000
000000
102200
000000
000000
000000
000000
000000
000000
000000
000000
000000
000000
000000
,
013310
000000
000000
000000
001100
000000
000000
000000
110000
000000
000000
000110
022210
000000
000000
000000
,
133310
000000
000000
000000
000122
000000
000000
000033
000122
000000
000000
000033
212212
000000
000000
000000
,
313313
000000
002200
000000
123321
000000
000000
030030
110100
000000
000000
000000
000122
000000
000000
000000
,
110033
000000
000000
000000
001000
000000
000000
000000
000100
000000
000000
000000
220011
000000
000000
000000
000000
000000
000000
000000
000000
000000
000000
000000
331200
000000
000000
000000
000000
000000
000000
000000
000000
000300
000000
000000
221000
000000
000000
000000
030000
000000
002100
000000
000000
000000
000000
000000
,
003210
000000
000321
000100
300132
010000
000123
001000
001230
000010
011300
000001
212212
000000
000010
000000
,
313313
000000
010000
000000
122100
000000
000010
033000
011220
000000
010000
000330
212212
000000
000000
000000
,
313313
000220
122330
033010
011100
001000
212212
000010
,
313313
000000
000000
000000
000000
000000
001000
000000
000000
000000
000000
000000
022210
000000
000000
000000
000000
000000
000010
000000
000000
033300
000000
000000
001022
000000
000000
000000
000000
000000
022000
000000
000000
000033
033000
000000
102200
000000
000000
000000
000000
000000
000010
000000
000000
000000
000000
000000
,
013310
000000
001000
000000
001100
000000
000100
000000
220000
000100
001000
330010
022210
000000
000010
000000
,
133310
000000
001000
000000
000122
000000
010000
000033
000122
000000
001000
000033
212212
000000
010000
000000
,
313313
000000
002200
000000
123321
000000
000100
030030
110100
000000
001000
000000
000122
000000
001000
000000
,
110033
000000
000000
000000
001000
000000
000000
000000
000100
000000
000000
000000
220011
000000
000000
000000
000000
000000
000100
000000
000000
000000
000000
000000
331200
000000
000000
000000
000000
000000
000010
000000
000000
000300
000000
000000
221000
000000
000000
000100
000000
000000
001000
000000
000000
000100
000000
000000
,
000011
000100
000010
000100
002011
000100
000010
003100
002010
000100
000010
003100
002001
000010
000100
000010
,
000101
003010
000201
000310
001200
000010
000001
000010
001000
000010
000001
331300
010222
001000
010000
001000
,
110000
001000
010000
100300
021000
000100
001000
130000
012000
103000
012000
103000
012000
000100
010000
000100
,
010000
000000
000000
000000
000000
000000
000000
000000
000000
000000
000000
000000
103000
000000
000000
000000
000000
000000
000000
000000
000000
000000
000000
000000
010000
000000
000000
000000
000000
000000
000000
000000
000000
000000
000000
000000
001000
000000
000000
000000
000000
000000
000000
000000
000000
000000
000000
000000
010100
000000
000000
000000
000000
000000
000000
000000
000000
000000
000000
000000
001000
000000
000000
000000
000000
000000
000000
000000
000000
000000
000000
000000
010000
000000
000000
000000
000000
000000
000000
000000
000000
000000
000000
000000
100000
000000
000000
000000
000000
000000
000000
000000
000000
000000
000000
000000
011000
000000
000000
000000
000000
000000
000000
000000
000000
000000
000000
000000
000100
000000
000000
000000
000000
000000
000000
000000
000000
000000
000000
000000
001000
000000
000000
000000
000000
000000
000000
000000
000000
000000
000000
000000
010000
000000
000000
000000
000000
000033
000000
000000
000000
000000
000000
000000
212200
000000
000000
000000
000000
000000
000000
000000
000000
000000
000000
000000
000010
000000
000000
000000
000000
000000
000000
000000
000000
000000
000000
000000
010000
000000
000000
000000
000000
000000
000000
000000
000000
000000
000000
000000
000010
000000
000000
000000
000000
000000
000000
000000
000000
000000
000000
000000
,
010001
000010
010000
000310
000201
010000
000010
010300
000210
010300
000201
010300
000210
010000
000001
010000
,
000011
010000
000010
010000
000011
010000
000010
313300
001022
010033
100220
010330
102200
010000
100000
013300
,
001022
010033
100220
010330
102200
010000
000010
013300
100022
010033
001220
010330
012200
003310
220100
331000
,
022100
033010
002201
003310
021020
000100
031030
010000
101022
010033
001220
000330
111000
000100
001000
010000
,
101000
000100
001000
010000
101000
000100
001000
010000
101000
000100
001000
010000
101010
010000
001000
000100
,
001010
010000
001000
000100
001010
010000
001000
000100
001010
010000
001000
000100
101010
010000
000100
001000
,
000101
001000
000100
000010
110100
001000
000100
000010
001100
010000
100000
001000
010101
001000
000100
000010
,
011000
000100
000010
001000
100101
011000
101000
010100
001010
000100
001010
010100
222222
000000
000000
000000
,
000000
000000
000000
000000
,
000000
000000
000000
000000
,
000000
333333
000000
000000
;
